Details for this torrent 

First.Man.2018.IMAX.1080p.BluRay.x264-FGT [GoodFilms]
Type:
Video > HD - Movies
Files:
2
Size:
12.81 GiB (13756073429 Bytes)
Info:
IMDB
Uploaded:
2019-01-12 23:51:37 GMT
By:
GoodFilms VIP
Seeders:
95
Leechers:
21
Comments
0  

Info Hash:
5B09F87319D1903BFC18F7351543D1B73CE82916




(Problems with magnets links are fixed by upgrading your torrent client!)
 https://www.imdb.com/title/tt1213641/


A look at the life of the astronaut, Neil Armstrong, and the legendary space mission that led him to become the first man to walk on the Moon on July 20, 1969.


Video
ID : 1
Format : AVC
Format/Info : Advanced Video Codec
Format profile : [email protected]
Format settings : CABAC / 4 Ref Frames
Format settings, CABAC : Yes
Format settings, ReFrames : 4 frames
Codec ID : V_MPEG4/ISO/AVC
Duration : 2 h 20 min
Bit rate : 11.5 Mb/s
Width : 1 920 pixels
Height : 1 080 pixels
Display aspect ratio : 16:9
Frame rate mode : Constant
Frame rate : 23.976 (24000/1001) FPS
Color space : YUV
Chroma subsampling : 4:2:0
Bit depth : 8 bits
Scan type : Progressive
Bits/(Pixel*Frame) : 0.231
Stream size : 11.3 GiB (88%)
Title : First.Man.2018.IMAX.1080p.BluRay.x264.DTS-FGT
Writing library : x264 core 148 r2748 97eaef2
Language : English
Default : Yes
Forced : No

Audio
ID : 2
Format : DTS
Format/Info : Digital Theater Systems
Codec ID : A_DTS
Duration : 2 h 20 min
Bit rate mode : Constant
Bit rate : 1 509 kb/s
Channel(s) : 6 channels
Channel layout : C L R Ls Rs LFE
Sampling rate : 48.0 kHz
Frame rate : 93.750 FPS (512 SPF)
Bit depth : 24 bits
Compression mode : Lossy
Stream size : 1.49 GiB (12%)
Title : First.Man.2018.IMAX.1080p.BluRay.x264.DTS-FGT
Language : English
Default : Yes
Forced : No

Text #1
ID : 3
Format : UTF-8
Codec ID : S_TEXT/UTF8
Codec ID/Info : UTF-8 Plain Text
Duration : 2 h 10 min
Bit rate : 48 b/s
Count of elements : 1376
Stream size : 46.9 KiB (0%)
Language : English
Default : Yes
Forced : No

Text #2
ID : 4
Format : UTF-8
Codec ID : S_TEXT/UTF8
Codec ID/Info : UTF-8 Plain Text
Duration : 2 h 12 min
Bit rate : 55 b/s
Count of elements : 1596
Stream size : 53.9 KiB (0%)
Title : SDH
Language : English
Default : No
Forced : No